Pls select your own language, using the translator in the left-hand corner
ancora sulla dinamica
Il Gazebo Audiofilo

The Italian Forum for HI-FI, Music, DAC, Headphones And Cables

    ancora sulla dinamica

    Share

    phaeton
    Moderatore suonologo
    Moderatore suonologo

    Numero di messaggi : 5718
    Data d'iscrizione : 2010-08-27

    ancora sulla dinamica

    Post  phaeton on Thu Sep 08, 2011 7:34 pm

    ripropongo l'argomento perche' ho avuto la possibilita' di "testare" la versione SACD 20th Anniversary Edition di Brothers in Arms dei DS cioe' questa:
    http://www.amazon.com/Brothers-Arms-20th-Anniversary-Straits/dp/B0009A21R6

    questo e' il risultato ad esempio per So Far Away



    CD originale 1985
    --------------------------------------------------------------------------------
    Statistics for: 01-So Far Away
    Number of samples: 13484032
    Duration: 5:05
    --------------------------------------------------------------------------------

    Left Right

    Peak Value: -2.00 dB --- -2.00 dB
    Avg RMS: -23.69 dB --- -23.87 dB
    DR channel: 20.21 dB --- 20.24 dB
    --------------------------------------------------------------------------------

    Official DR Value: DR20

    Samplerate: 44100 Hz
    Channels: 2
    Bits per sample: 16
    Bitrate: 785 kbps
    Codec: FLAC
    ================================================================================




    questo e' il SACD 20th anniversary
    --------------------------------------------------------------------------------
    Statistics for: 01-So Far Away
    Number of samples: 27466656
    Duration: 5:11
    --------------------------------------------------------------------------------

    Left Right

    Peak Value: -3.70 dB --- -4.24 dB
    Avg RMS: -14.96 dB --- -15.14 dB
    DR channel: 8.82 dB --- 8.52 dB
    --------------------------------------------------------------------------------

    Official DR Value: DR9

    Samplerate: 88200 Hz
    Channels: 2
    Bits per sample: 24
    Bitrate: 2852 kbps
    Codec: FLAC
    ================================================================================


    DR9!!!!!!!!!!! no, dico, scherziamo????? il CD originale ha un DR20 e il SACD (che potrebbe garantire una dinamica mooooolto superiore non tanto per la massima dinamica quanto per la maggiore linearita' a bassi livelli) e' stato compresso fino a DR9!!!!!!!!!!!!!!!!!!!!!!!

    parafrasando una giusta considerazione del nostro bloodhound nazionale: meditate gente, meditate!!!!!




    _________________
    Knowledge is based on Experience, Everything else is just Information

    Cricetone
    Hi-End Member
    Hi-End Member

    Numero di messaggi : 6589
    Data d'iscrizione : 2008-12-22
    Località : catanzaro

    Re: ancora sulla dinamica

    Post  Cricetone on Thu Sep 08, 2011 7:37 pm

    ti ifnormoc he tu hai prelevato lo strado cd del sacd,lo strato sacd non lo puoi estrarre facilmente


    _________________
     38.000+ foto dei circuiti interni di elettroniche e diffusori hifi, av e professionali.

    phaeton
    Moderatore suonologo
    Moderatore suonologo

    Numero di messaggi : 5718
    Data d'iscrizione : 2010-08-27

    Re: ancora sulla dinamica

    Post  phaeton on Thu Sep 08, 2011 7:40 pm

    Salv.Scarfone wrote:ti ifnormoc he tu hai prelevato lo strado cd del sacd,lo strato sacd non lo puoi estrarre facilmente

    ti informo che (come anche puoi facilmente vedere dai dati riportati nel report DR) e' stato proprio estratto il DSD.
    non l'ho fatto io, e' stata usata una audio mastering workstation professioanle, e' stato estratto prima l'iso e poi e' stato passato in PCM 24/88 (il tutto, naturalmente, lossless, come sicuramente potrai verificare da solo facendo due conticini)

    aggiungo, senza alcuna polemica: un po' meno fretta e un po' piu' di sana modestia non guasterebbero




    _________________
    Knowledge is based on Experience, Everything else is just Information

    Cricetone
    Hi-End Member
    Hi-End Member

    Numero di messaggi : 6589
    Data d'iscrizione : 2008-12-22
    Località : catanzaro

    Re: ancora sulla dinamica

    Post  Cricetone on Thu Sep 08, 2011 7:42 pm

    evidentemente è la solita presa pecculo dei remaster,roba da comprare giusto per la custodia ed il libretto sempre belli...

    pluto
    Moderatore - discobolo

    Numero di messaggi : 21551
    Data d'iscrizione : 2010-10-05
    Età : 58
    Località : Genova

    Re: ancora sulla dinamica

    Post  pluto on Thu Sep 08, 2011 7:47 pm

    IL bloodhound sarebbe curioso di sapere i risultati anche del vinile e del XRCD

    Azz sembra impossibile - sarebbe la prima volta che un SACD fallisce così miseramente nei confronti del CD

    Riesci ad avere altri dati? E scusa la domanda, c'è solo quella traccia li? O anche brothers in arms?

    Massimo
    moderatore
    moderatore

    Numero di messaggi : 31502
    Data d'iscrizione : 2010-06-21
    Età : 61
    Località : Portici (NA)

    Re: ancora sulla dinamica

    Post  Massimo on Thu Sep 08, 2011 7:50 pm

    phaeton wrote:
    aggiungo, senza alcuna polemica: un po' meno fretta e un po' piu' di sana modestia non guasterebbero


    (Il mio Quote non è riferita assolutamente al caro Salvatore, io per primo dovrei farmi un bell'esame di coscienza).


    _________________
    Quando il dito indica la luna, l'imbecille guarda il dito

    Cricetone
    Hi-End Member
    Hi-End Member

    Numero di messaggi : 6589
    Data d'iscrizione : 2008-12-22
    Località : catanzaro

    Re: ancora sulla dinamica

    Post  Cricetone on Thu Sep 08, 2011 7:52 pm

    Massimo wrote:
    phaeton wrote:
    aggiungo, senza alcuna polemica: un po' meno fretta e un po' piu' di sana modestia non guasterebbero


    (Il mio Quote non è riferita assolutamente al caro Salvatore, io per primo dovrei farmi un bell'esame di coscienza).
    scusate,davo per scontato che non avesse modo di estrarre lo strato dsd! angel

    phaeton
    Moderatore suonologo
    Moderatore suonologo

    Numero di messaggi : 5718
    Data d'iscrizione : 2010-08-27

    Re: ancora sulla dinamica

    Post  phaeton on Thu Sep 08, 2011 7:55 pm

    beh, non dovrei dirlo Neutral Neutral ma visto che c'ero me lo sono fatto scopiazzare tutto (*) ero contento come un bambinetto.... poi arrivato a casetta e letto per la frettissima direttamente dalla chiavetta ho capito che c'era qualcosa che non andava.... lo cancello stasera stessa quindi se vi dovesse servire qualche altro dato lemme know ASAP
    (*) per formazione sono assolutamente contrario a qualunque forma di pirateria, se i flac avessero suonato bene avrei comprato immediatamente il SACD...

    questo e' Brothers in Arms dal CD
    --------------------------------------------------------------------------------
    Statistics for: 09-Brothers In Arms
    Number of samples: 18477056
    Duration: 6:58
    --------------------------------------------------------------------------------

    Left Right

    Peak Value: -6.95 dB --- -8.24 dB
    Avg RMS: -25.51 dB --- -27.04 dB
    DR channel: 14.42 dB --- 14.73 dB
    --------------------------------------------------------------------------------

    Official DR Value: DR15

    Samplerate: 44100 Hz
    Channels: 2
    Bits per sample: 16
    Bitrate: 564 kbps
    Codec: FLAC
    ================================================================================



    questo invece e' Brothers in Arms dal SACD
    --------------------------------------------------------------------------------
    Statistics for: 09-Brothers In Arms
    Number of samples: 36839376
    Duration: 6:57
    --------------------------------------------------------------------------------

    Left Right

    Peak Value: -5.43 dB --- -5.38 dB
    Avg RMS: -15.90 dB --- -17.31 dB
    DR channel: 7.10 dB --- 8.47 dB
    --------------------------------------------------------------------------------

    Official DR Value: DR8

    Samplerate: 88200 Hz
    Channels: 2
    Bits per sample: 24
    Bitrate: 2647 kbps
    Codec: FLAC
    ================================================================================

    DR8 contro DR15............. e ti assicuro che avendo ascoltato BiA allo sfinimento, mi sono accorto subito che c'era qualcosa che non andava..... che tristezza.....
    btw, non e' NATURALMENTE colpa del SACD... la colpa e' di quell'assassino di audio eng che ha fatto 'sto scempio....



    _________________
    Knowledge is based on Experience, Everything else is just Information

    pluto
    Moderatore - discobolo

    Numero di messaggi : 21551
    Data d'iscrizione : 2010-10-05
    Età : 58
    Località : Genova

    Re: ancora sulla dinamica

    Post  pluto on Thu Sep 08, 2011 7:56 pm

    ragazzi il cricetone è simpatico. Aveva fatto indigestione di biscotti e si è sbagliato Laughing Laughing

    Cricetone
    Hi-End Member
    Hi-End Member

    Numero di messaggi : 6589
    Data d'iscrizione : 2008-12-22
    Località : catanzaro

    Re: ancora sulla dinamica

    Post  Cricetone on Thu Sep 08, 2011 7:58 pm

    phaeton wrote:
    DR8 contro DR15............. e ti assicuro che avendo ascoltato BiA allo sfinimento, mi sono accorto subito che c'era qualcosa che non andava..... che tristezza.....
    btw, non e' NATURALMENTE colpa del SACD... la colpa e' di quell'assassino di audio eng che ha fatto 'sto scempio....

    considerando che tantissimi cd odierni hanno dinamica tra 3-7db, il tuo con 8db è per loro gia ad alta dinamica in un certo senso! erg

    Cricetone
    Hi-End Member
    Hi-End Member

    Numero di messaggi : 6589
    Data d'iscrizione : 2008-12-22
    Località : catanzaro

    Re: ancora sulla dinamica

    Post  Cricetone on Thu Sep 08, 2011 7:58 pm

    pluto wrote:ragazzi il cricetone è simpatico. Aveva fatto indigestione di biscotti e si è sbagliato Laughing Laughing
    biscotti bastardi!

    Massimo
    moderatore
    moderatore

    Numero di messaggi : 31502
    Data d'iscrizione : 2010-06-21
    Età : 61
    Località : Portici (NA)

    Re: ancora sulla dinamica

    Post  Massimo on Thu Sep 08, 2011 7:59 pm

    Difatti non mi riferivo al mangiatore di biscotti. sunny


    _________________
    Quando il dito indica la luna, l'imbecille guarda il dito

    pluto
    Moderatore - discobolo

    Numero di messaggi : 21551
    Data d'iscrizione : 2010-10-05
    Età : 58
    Località : Genova

    Re: ancora sulla dinamica

    Post  pluto on Thu Sep 08, 2011 8:04 pm

    Mike ora capisco xchè la tua segretaria non ti riesce a trovare un buco libero. Con tutte ste pratiche che dovete espletare...

    azz ma non potevate provare anche un vinile - sarei curiosissimo
    Tu quando fai queste prove, mi devi avvisare, che ti mando tutto il materiale che ho

    Comunque è proprio vero, ormai qua non c'è più una regola precisa. Ogni disco finisce x fare una storia a se; a meno di avere una serie di dischi rimasterizzati dalla stessa persona etc etc con un criterio comune. Altrimenti è un terno al lotto

    Mò devo uscire - poi ci si sente
    ciao a tutti

    Cricetone
    Hi-End Member
    Hi-End Member

    Numero di messaggi : 6589
    Data d'iscrizione : 2008-12-22
    Località : catanzaro

    Re: ancora sulla dinamica

    Post  Cricetone on Thu Sep 08, 2011 8:07 pm

    pluto wrote:Mike ora capisco xchè la tua segretaria non ti riesce a trovare un buco libero.
    santa santa santa

    phaeton
    Moderatore suonologo
    Moderatore suonologo

    Numero di messaggi : 5718
    Data d'iscrizione : 2010-08-27

    Re: ancora sulla dinamica

    Post  phaeton on Thu Sep 08, 2011 8:50 pm

    pluto wrote:Mike ora capisco xchè la tua segretaria non ti riesce a trovare un buco libero. Con tutte ste pratiche che dovete espletare...


    guarda, lasciamela stare, e' una santissima donna (e con il mio carattere puntiglioso sul lavoro ci vuole proprio una santa...), se non ci fosse sarebbe la mia fine.... purtroppo (per lei) e' in sharing con altri 2 loschi figuri come me e ti puoi immaginare il carico di lavoro che la poveretta sopporta.....
    ora basta pero', che se legge poi mi chiede l'aumento... sunny sunny sunny



    _________________
    Knowledge is based on Experience, Everything else is just Information

    Gildo
    JuniorMember
    JuniorMember

    Numero di messaggi : 366
    Data d'iscrizione : 2010-01-01

    Re: ancora sulla dinamica

    Post  Gildo on Thu Sep 08, 2011 11:01 pm

    Ho il SACD di Brothers in the ARMS e la vecchia edizione in CD.
    Il SACD si sente più forte, forse segno di una compressione della dinamica, ma con molti più dettagli quindi lo si sente meglio, almeno sul mio impianto.

    Il FLAC è della versione 2 canali?
    Non ho trovato un DR tester per file FLAC ma solo Wav.

    Questi passaggi dal DSD al FLAC non so se sono così trasparenti, c'è sempre di mezzo una lettura ISO e una registrazione, seppure in digitale con possibili jitter e altre correzioni CRC.
    Già passare dal CD al FLAC può non essere così indolore ma non conosco i meccanismi di correzione errori su DSD.


    _________________
    Oppo BDP-95 Aurion Audio, Audio Analogue Verdi 100 SE AIRTECH EVO Plus, Cavi AIRTECH potenza e segnale RCA, Audes Studio
    LD MK VI Tung-sol JAN-CTL-6188 Cryo + SED -C- 6AS7G - Cavi Airtech Omega XLR EVO Strong DDF - HD800 cavo Airtech

    Massimo
    moderatore
    moderatore

    Numero di messaggi : 31502
    Data d'iscrizione : 2010-06-21
    Età : 61
    Località : Portici (NA)

    Re: ancora sulla dinamica

    Post  Massimo on Thu Sep 08, 2011 11:06 pm

    phaeton wrote:
    ... ora basta pero', che se legge poi mi chiede l'aumento... sunny sunny sunny

    affraid affraid affraid affraid


    _________________
    Quando il dito indica la luna, l'imbecille guarda il dito

      Current date/time is Sat Dec 10, 2016 5:38 pm