Pls select your own language, using the translator in the left-hand corner
modalità rippaggio con EAC
Il Gazebo Audiofilo

The Italian Forum for HI-FI, Music, DAC, Headphones And Cables

modalità rippaggio con EAC

gibel
gibel
Member
Member

Numero di messaggi : 64
Data d'iscrizione : 04.04.15

modalità rippaggio con EAC Empty modalità rippaggio con EAC

Messaggio Da gibel il Lun Mag 25 2015, 15:17

Salve. Una domanda semplice . Sto rippando tutti i miei CD in formato WAV . Quando si avvia il rippaggio con Exact Audio Copy è preferibile la procedura "copia tracce selezionate - non compresse " o quella "copia immagine e crea cuesheet - non compresse " ? Le ho provare entrambe e francamente , all'ascolto , non percepisco alcuna differenza tra le due . Mi interessano le differenze pratiche nella gestione successiva dei files . Quali sono in sostanza vantaggi e svantaggi nell'avere tutti i files corrispondenti ai singoli brani piuttosto che un unico file ? Ho letto varie guide in rete sull'utilizzo di EAC e mi pare che ci siano sostenitori dell'una e dell'altra procedura. Voi quale adottate ?
gciraso
gciraso
Strizzacervelli
Strizzacervelli

Numero di messaggi : 3720
Data d'iscrizione : 06.06.13
Età : 64
Località : Padova

modalità rippaggio con EAC Empty Re: modalità rippaggio con EAC

Messaggio Da gciraso il Lun Mag 25 2015, 16:20

Il cuesheet è semplicemente un file di testo dove sono indicati i tagli delle singole tracce. Differenza uditive nessuna.
Un unico file è piuttosto ingombrante, per il resto non ci sono altre differenze.


_________________
Giovanni

E leggetelo 'sto regolamento!!!

ze inutile ragionar coi mussi, te perdi tempo e te infastidissi la bestia
RockOnlyRare
RockOnlyRare
Rockzebo Expert

Numero di messaggi : 7378
Data d'iscrizione : 18.05.12
Età : 64
Località : Milano

modalità rippaggio con EAC Empty Re: modalità rippaggio con EAC

Messaggio Da RockOnlyRare il Lun Mag 25 2015, 16:23

Dal punto di vista audiofilo direi che davvero non ci siano differenze.
Personalmente non ho dubbi sul fatto di preferire un album spezzato in n tracce per evidente comodità di utilizzo (di solito gli album in un "pezzo" si usano per rimasterizzarli o per condividerli).

EAC è un eccellente software che uso anche io, la differenza la fanno i parametri di estrazione, la qualità del lettore cd, va bene anche il pc ma purchè il lettore sia in buone condizioni, e soprattutto la verifica del log che certifica la qualità che consiglio caldamente di generare e controllare.
Utile anche la connessione e generazione del file .accurip che verifica la correttezza dell'estrazione della traccia in termine di durata delle tracce.

L'ideale sarebbe che tutti i files fossero estratti al 100% (qualora non lo siano si può provare la modalità "paranoia" altrimenti decisamente più lenta.

Molta attenzione anche la prima volta per la calibrazione del cd che va eseguita ogni volta che si cambia hardware (lettore).

VEDI AD ESEMPIO :LOG ALLEGATO: (si tratta di una buona estrazione anche se non perfetta, ci sono alcune tracce al 99,9% di accuratezza. Ma risale al 2006 per cui si può davvero essere soddisfatti)

---------------------------------------------
EAC extraction logfile from 3. March 2006, 13:28 for CD
U2 / All That You Can't Leave Behind

Used drive  : CDWRITERIDE5224   Adapter: 4  ID: 1
Read mode   : Secure with NO C2, accurate stream, disable cache
Read offset correction : 6
Overread into Lead-In and Lead-Out : No

Used output format : C:\Program Files\FLAC\flac.exe   (User Defined Encoder)
                    128 kBit/s
                    Additional command line options : -8 -V -T "ARTIST=%a" -T "TITLE=%t" -T "ALBUM=%g" -T "DATE=%y" -T "TRACKNUMBER=%n" -T "GENRE=%m" -T "COMMENT=EAC Flac 1.1.2 -8" %s

Other options      :
   Fill up missing offset samples with silence : Yes
   Delete leading and trailing silent blocks : No
   Native Win32 interface for Win NT & 2000


Track  1
    Filename E:\My Shared Files\U2 - All That You Can't Leave Behind (2000) [FLAC]\01 - Beautiful Day.wav

    Pre-gap length  0:00:02.00

    Peak level 100.0 %
    Track quality 100.0 %
    Test CRC 237DD8EC
    Copy CRC 237DD8EC
    Copy OK

Track  2
    Filename E:\My Shared Files\U2 - All That You Can't Leave Behind (2000) [FLAC]\02 - Stuck In A Moment You Can't Get Out Of.wav

    Pre-gap length  0:00:01.50

    Peak level 100.0 %
    Track quality 99.9 %
    Test CRC 9E5FBB8A
    Copy CRC 9E5FBB8A
    Copy OK

Track  3
    Filename E:\My Shared Files\U2 - All That You Can't Leave Behind (2000) [FLAC]\03 - Elevation.wav

    Pre-gap length  0:00:00.37

    Peak level 100.0 %
    Track quality 99.9 %
    Test CRC A1112B22
    Copy CRC A1112B22
    Copy OK

Track  4
    Filename E:\My Shared Files\U2 - All That You Can't Leave Behind (2000) [FLAC]\04 - Walk On.wav

    Pre-gap length  0:00:01.25

    Peak level 100.0 %
    Track quality 99.9 %
    Test CRC 66D1AF85
    Copy CRC 66D1AF85
    Copy OK

Track  5
    Filename E:\My Shared Files\U2 - All That You Can't Leave Behind (2000) [FLAC]\05 - Kite.wav

    Pre-gap length  0:00:01.22

    Peak level 100.0 %
    Track quality 100.0 %
    Test CRC 859AD79F
    Copy CRC 859AD79F
    Copy OK

Track  6
    Filename E:\My Shared Files\U2 - All That You Can't Leave Behind (2000) [FLAC]\06 - In A Little While.wav

    Pre-gap length  0:00:03.57

    Peak level 100.0 %
    Track quality 100.0 %
    Test CRC 80811C66
    Copy CRC 80811C66
    Copy OK

Track  7
    Filename E:\My Shared Files\U2 - All That You Can't Leave Behind (2000) [FLAC]\07 - Wild Honey.wav

    Pre-gap length  0:00:02.15

    Peak level 100.0 %
    Track quality 100.0 %
    Test CRC E62D119E
    Copy CRC E62D119E
    Copy OK

Track  8
    Filename E:\My Shared Files\U2 - All That You Can't Leave Behind (2000) [FLAC]\08 - Peace On Earth.wav

    Pre-gap length  0:00:01.73

    Peak level 100.0 %
    Track quality 100.0 %
    Test CRC 7F158397
    Copy CRC 7F158397
    Copy OK

Track  9
    Filename E:\My Shared Files\U2 - All That You Can't Leave Behind (2000) [FLAC]\09 - When I Look At The World.wav

    Pre-gap length  0:00:02.10

    Peak level 100.0 %
    Track quality 99.9 %
    Test CRC D3CD3936
    Copy CRC D3CD3936
    Copy OK

Track 10
    Filename E:\My Shared Files\U2 - All That You Can't Leave Behind (2000) [FLAC]\10 - New York.wav

    Pre-gap length  0:00:02.25

    Peak level 100.0 %
    Track quality 100.0 %
    Test CRC 1B44C8FF
    Copy CRC 1B44C8FF
    Copy OK

Track 11
    Filename E:\My Shared Files\U2 - All That You Can't Leave Behind (2000) [FLAC]\11 - Grace.wav

    Pre-gap length  0:00:02.15

    Peak level 100.0 %
    Track quality 100.0 %
    Test CRC 65A09F56
    Copy CRC 65A09F56
    Copy OK

No errors occured


End of status report


_________________
http://basta-con-i-tagli-alle-pensioni.over-blog.it/article-le-bugie-sull-aspettativa-di-vita-84948824.html

https://www.indexmundi.com/facts/indicators/SP.DYN.LE00.IN/compare#country=it

    La data/ora di oggi è Mar Mag 21 2019, 11:15