Pls select your own language, using the translator in the left-hand corner
Hashtag "0" su Il Gazebo Audiofilo
Il Gazebo Audiofilo

The Italian Forum for HI-FI, Music, DAC, Headphones And Cables


1 risultato trovato per ""

streaming e liquida - Mer Mag 01, 2019 3:32 pm

guarda se vuoi mandarmi i Sample  te li analizzo, niente di più facile con la liquida.
peraltro se senti delle differenze sono da ricercare altrove. 

 un file scaricato da HD tracks sarà sempre uguale idem per il RIP  , stesso mezzo stessa sorgente, idem per Qobuz  anche se lo scarico infinite volte. I presunti degradi logici del file dovuti trasmissione (fino a quando il file arriva sul tuo player ) non ci sono e mai ci saranno . se il file e' corrotto non lo ascolti o ne ascolti qualche porzione, se il file e' buono lo ascolti.

Questo e' Angels of Arlem Rippato da cd del 1989 (a)

01-Angel_Of_Harlem.flac: FLAC audio bitstream data, 16 bit, stereo, 44.1 kHz, 10044804 samples


Hashtag 0 su Il Gazebo Audiofilo 01-ang11

Questo e' in stream da Qobuz oggi (b)

10 - Angel Of Harlem.flac: FLAC audio bitstream data, 16 bit, stereo, 44.1 kHz, 10110660 samples


Hashtag 0 su Il Gazebo Audiofilo 10_ang11


ci sono 65865 Sample di differenza a favore di Qobuz, il brano dura qualche secondo di più rispetto a quello rippato dal CD il bitrate e' leggermente maggiore sul CD del 1998 ..


(a)
 Duration: 00:03:47.77, start: 0.000000, bitrate: 941 kb/s
    Stream #0:0: Audio: flac, 44100 Hz, stereo, s16

duration_ts=10044804
duration=227.773333


(b)
 Duration: 00:03:49.27, start: 0.000000, bitrate: 919 kb/s
    Stream #0:0: Audio: flac, 44100 Hz, stereo, s16

duration_ts=10110660
duration=229.266667


Basandomi sullo spettrogramma e sul mio orecchio ci sono differenze  visibili ! nel file di qobuz non c'e' nulla oltre i 22khz , il file preso da cd ha escursioni oltre i 22khz  poco udibili per le mie orecchie.. 
spettrografia a parte  ci possono essere altre differenze ! Certo è possibile a livello sonoro, dal file alle casse abbiamo attraversato un abisso e se il tuo orecchio e il tuo impianto riescono a discriminarle meglio per te , ci sono tanti fenomeni che non capiamo figurati se vengo a questionare su quello che senti o non senti tu.. ;) 

ritengo peró che la trasmissione di Qobuz e/o di HDtrack  non sia la variabile che introduce queste differenze , ritengo invece che intervengano in quello che ascolti  dopo averlo scaricato .. 
.


Torna in alto

La data/ora di oggi è Gio Dic 12, 2019 5:14 pm